DNS SERVER ÄNDERN, um der staatlichen Zensur zu entgehen. Sollten wir von eurem Provider gesperrt werden, nutzt den TOR BROWSER oder ändert euren DNS SERVER.

Filmwünsche können bei uns im Forum abgegeben werden

Wir Speichern Nicht




 
 
 
Top Releases
Halloween.2018.MULTi.COMPLET...
Das.schoenste.Maedchen.der.W...
Das.schoenste.Maedchen.der.W...
Girl.German.DL.720p.BluRay.x...
Girl.2018.MULTi.COMPLETE.BLU...
Das.schoenste.Maedchen.der.W...
Girl.German.DL.1080p.BluRay....
Operation.Overlord.2018.Germ...
Der.wilde.Pazifik.Die.Schoen...
Venom.2018.MULTi.COMPLETE.UH...

Cinedubs
Spider-Man.A.New.Universe.20...
Spider-Man.A.New.Universe.20...
Creed.2.Rockys.Legacy.2018.G...
Green.Book.Eine.besondere.Fr...
Creed.2.Rockys.Legacy.2018.G...
Ploetzlich.Familie.2018.GERM...
Maria.Stuart.Koenigin.von.Sc...
Maria.Stuart.Koenigin.von.Sc...
The.Possession.of.Hannah.Gra...
The.Possession.of.Hannah.Gra...

Neuerscheinungen 2018-19
Samson.2018.German.DL.1080p....
Samson.2018.German.720p.BluR...
Instant.Death.2017.GERMAN.DL...
Instant.Death.2017.GERMAN.72...
Halloween.2018.German.720p.B...
Wackersdorf.2018.GERMAN.COMP...
Halloween.2018.German.DL.108...
Die.Geiselnahme.2018.GERMAN....
Wackersdorf.German.720p.BluR...
Wackersdorf.German.1080p.Blu...

XXX
DarkX.19.01.31.Skylar.Snow.R...
KarupsOW.19.01.30.Nina.Hartl...
Nympho.19.01.30.Carmen.Calie...
FTVGirls.19.01.30.Gracie.Org...
ATKHairy.19.01.29.Kasey.Warn...
AlexisMonroe.18.07.27.Teenie...
BAMVisions.19.01.27.Victoria...
AlexisMonroe.18.05.12.Foot.F...
BitchConfessions.19.01.30.Pa...
MomPov.BONUS.E90.Connie.XXX....
GirlsOutWest.19.01.30.Alicia...
BangBus.19.01.30.Alexa.Vega....
NewSensations.19.01.30.Lilly...
PlayboyPlus.19.01.28.Gloria....
Submissived.19.01.28.Lola.Ch...
SinfulXXX.19.01.29.Anna.Poli...
AlexisMonroe.18.11.09.Isiah....
PlumperPass.19.01.28.Kendra....
MomPov.BONUS.E100.Maggie.XXX...
TrannySurprise.17.07.19.Caro...

3D
Phantastische.Tierwesen.und....
Phantastische.Tierwesen.und....
Top.Gun.3D.1986.COMPLETE.BLU...
Passengers.2016.3D.HOU.Germa...
Venom.3D.2018.German.DL.1080...
Venom.3D.2018.MULTi.COMPLETE...
Passengers.2016.3D.HSBS.Germ...
Die.Unglaublichen.2.3D.2018....
Die.Reise.zum.Mittelpunkt.de...
Die.Reise.zum.Mittelpunkt.de...
Die.Reise.zum.Mittelpunkt.de...
Kaluoka.Hina.Das.Zauberriff....
Blade.Runner.2049.3D.2017.Ge...
Walhalla.Rising.3D.2009.DUAL...
Sleepwalker.3D.2011.DUAL.COM...

Old_Stuff
Soylent.Green.2022.die.ueber...
Drive.2011.German.DL.DTS.108...
Die.Schoene.und.das.Biest.Sp...
Kung.Fu.Panda.2008.German.DL...
Cars.2006.German.1080p.BluRa...
Die.Bestimmung.Divergent.201...
Disneys.Eine.Weihnachtsgesch...
Shrek.der.Dritte.2007.German...
Shrek.2.Der.tollkuehne.Held....
Men.of.Honor.2000.MULTi.COMP...
Over.the.Top.1987.MULTi.COMP...
Feinde.Hostiles.2017.German....
Total.Recall.EXTENDED.2012.G...
Blade.II.2002.UNCUT.German.A...
Transformers.2007.German.AC3...

Filme
Halloween.2018.German.UHDBD....
Halloween.2018.German.1080p....
Das.schoenste.Maedchen.der.W...
Black.Hawk.Down.2001.Extende...
Die.Suenderin.1951.GERMAN.CO...
Kokowaeaeh.2011.German.1080p...
Felony.Ein.Moment.kann.alles...
Utoya.22.Juli.2018.German.DT...
Stirb.langsam.Ein.guter.Tag....
Snowy.River.1982.German.1080...
Upgrade.2018.German.DTS.DL.1...
Superfly.2018.German.DTS.DL....
Fight.City.Of.Darkness.2011....
Rocky.IV.1985.German.DL.1080...
Wo.bitte.gehts.zur.Front.197...
El.Chapo.S01.COMPLETE.German...
El.Chapo.S01.COMPLETE.German...
FBI.S01.GERMAN.DUBBED.720p.H...
The.Big.Bang.Theory.S12.GERM...
The.Big.Bang.Theory.S12.GERM...
Ihre.Majestaet.Mrs.Brown.199...
Rocky.III.1982.German.DL.108...
Nachtfalke.1981.Remastered.G...
7.Below.Haus.der.dunklen.See...

 
 
Preacher.S01.COMPLETE.GERMAN.DUBBED.DL.1080p.WebHD.x264-TVP

Jahr: 2016
Genre: Abenteuer | Drama | Fantasy
Sprache: Deutsch AC3 | Englisch AC3
Laufzeit: 1h je Folge
Bitrate: 5000 Kbps
Format: MKV
Größe: 2,5 GB je Folge
Release:

Beschreibung:

Der Geistliche Jesse Custer (Dominic Cooper) ist ein Prediger aus dem tiefsten Süden von Texas. Jesse hat jedoch seinen Glauben an Gott verloren und sieht sich jeglicher Verantwortung entledigt. Doch eine Aufgabe treibt ihn weiterhin an: Er will Gott persönlich zur Rechenschaft für sein eigenes Unheil ziehen. Somit streift er gemeinsam mit seiner Ex-Freundin Tulip (Ruth Negga) und dem irischen Vampir Cassidy (Joseph Gilgun) durch das Land, auf der Suche nach Gerechtigkeit. Doch dabei werden sie von einem mystischen Killer verfolgt, der den Auftrag hat, Jesse zu töten…

 

enthaltene Folgen (Staffel komplett):

Preacher.S01E01.Pilot.GERMAN.DUBBED.DL.1080p.WebHD.x264-TVP

Preacher.S01E02.See.GERMAN.DUBBED.DL.1080p.WebHD.x264-TVP

Preacher.S01E03.The.Possibilities.GERMAN.DUBBED.DL.1080p.WebHD.x264-TVP

Preacher.S01E04.The.Serve.GERMAN.DUBBED.DL.1080p.WebHD.x264-TVP

Preacher.S01E05.South.Will.Rise.Again.GERMAN.DUBBED.DL.1080p.WebHD.x264-TVP

Preacher.S01E06.Sundowner.GERMAN.DUBBED.DL.1080p.WebHD.x264-TVP

Preacher.S01E07.He.Gone.GERMAN.DUBBED.DL.1080p.WebHD.x264-TVP

Preacher.S01E08.El.Valero.GERMAN.DUBBED.DL.1080p.WebHD.x264-TVP

Preacher.S01E09.Finish.The.Song.GERMAN.DUBBED.DL.1080p.WebHD.x264-TVP

Preacher.S01E10.Call.and.Response.GERMAN.DUBBED.DL.1080p.WebHD.x264-TVP NEU



General
Complete name                            : Preacher.S01E01.Pilot.GERMAN.DUBBED.DL.1080p.WebHD.x264-TVP\tvp-preacher-s01e01-1080p.mkv
Format                                   : Matroska
Format version                           : Version 2
File size                                : 2.57 GiB
Duration                                 : 1h 4mn
Overall bit rate                         : 5 668 Kbps
Movie name                               : Preacher.S01E01.Pilot.GERMAN.DUBBED.DL.1080p.WebHD.x264-TVP
Encoded date                             : UTC 2016-05-29 22:37:18
Writing application                      : mkvmerge v5.6.0 ('Kenya Kane') built on May 28 2012 06:47:39
Writing library                          : libebml v1.2.2 + libmatroska v1.3.0

Video
ID                                       : 1
Format                                   : AVC
Format/Info                              : Advanced Video Codec
Format profile                           : High@L4.0
Format settings, CABAC                   : Yes
Format settings, ReFrames                : 4 frames
Codec ID                                 : V_MPEG4/ISO/AVC
Duration                                 : 1h 4mn
Bit rate                                 : 4 980 Kbps
Width                                    : 1 916 pixels
Height                                   : 1 076 pixels
Display aspect ratio                     : 16:9
Original display aspect ratio            : 16:9
Frame rate mode                          : Constant
Frame rate                               : 23.976 fps
Color space                              : YUV
Chroma subsampling                       : 4:2:0
Bit depth                                : 8 bits
Scan type                                : Progressive
Bits/(Pixel*Frame)                       : 0.101
Stream size                              : 2.25 GiB (88%)
Title                                    : tvp-preacher-s01e01-1080p
Language                                 : German
Default                                  : Yes
Forced                                   : Yes
Color primaries                          : BT.709
Transfer characteristics                 : BT.709
Matrix coefficients                      : BT.709

Audio #1
ID                                       : 2
Format                                   : AC-3
Format/Info                              : Audio Coding 3
Mode extension                           : CM (complete main)
Format settings, Endianness              : Big
Codec ID                                 : A_AC3
Duration                                 : 1h 4mn
Bit rate mode                            : Constant
Bit rate                                 : 192 Kbps
Channel(s)                               : 2 channels
Channel positions                        : Front: L R
Sampling rate                            : 48.0 KHz
Bit depth                                : 16 bits
Compression mode                         : Lossy
Stream size                              : 89.0 MiB (3%)
Language                                 : German
Default                                  : Yes
Forced                                   : Yes

Audio #2
ID                                       : 3
Format                                   : AC-3
Format/Info                              : Audio Coding 3
Mode extension                           : CM (complete main)
Format settings, Endianness              : Big
Codec ID                                 : A_AC3
Duration                                 : 1h 4mn
Bit rate mode                            : Constant
Bit rate                                 : 384 Kbps
Channel(s)                               : 6 channels
Channel positions                        : Front: L C R, Side: L R, LFE
Sampling rate                            : 48.0 KHz
Bit depth                                : 16 bits
Compression mode                         : Lossy
Stream size                              : 178 MiB (7%)
Language                                 : English
Default                                  : No
Forced                                   : No



Download:
Share-Online.biz Share-Online.bizShare-Online.bizShare-Online.biz | Uploaded.net Uploaded.netUploaded.netUploaded.net
 

Kommentare